[ Сегодня идет свободное скачивание без начисления Download ]


Статистика раздачи
Нет
 
   
 
 
 
 
Гавайи 5.0 / Hawaii Five-0 [08x01-11 из 22] (2017) | WEB-DL 720р Название: Гавайи 5.0
Оригинальное название: Hawaii Five-0
Год выпуска: 2017
Жанр: Боевик, драма, криминал
Выпущено: США, 101st Street Productions, CBS Productions, Kurtzman Orci Paper Products
Режиссер: Брайан Спайсер, Ларри Тенг, Стив Бойум
В ролях: Алекс О’Локлин, Скотт Каан, Дэниэл Дэ Ким, Грейс Пак, Маси Ока, Тайлор Уайли, Мишель Борт, Дэннис Чун, Тейлор Груббс, Чи МакБрайд
Описание:
Это сериал о копах нового вида. Отца бывшего морского офицера, а ныне детектива Стивена МакГаррета убили, и жаждущий мести сын возвращается на свою родину, Оаху, один из островов Гавайского архипелага. Расследованию серьезно помогает губернатор штата, намеренная искоренить преступность в своих владениях. Она делает Стивена командиром подразделения, имеющего практический полный правовой иммунитет, а значит, никаких ограничений и бюрократии. Команда у героя подбирается соответствующая: у каждого ее участника свои причины бороться с преступностью, не жалея сил. Дэнни Уильямс не любитель пляжей, но он готов на все, лишь бы острова были безопасны для его маленькой дочери, живущей здесь. Чин Хо Келли, которого ошибочно обвинили во взятке, мечтает обелить свое честное имя. А его сестра Коно, заканчивающая полицейскую академию, желает показать всем, что упавшая на нее из-за брата тень не преграда для ее профессиональной работы. Эта разношерстная компания, не связанная правилами, общими для обычных полицейских, обязательно наведет порядок на Гавайях.

Качество: WEB-DL 720р (чистый видеоряд)
Видео: 1280x720, 23.976 fps, MPEG-4 AVC ~4000 kbps
Аудио #1: Русский (AC3, 2 ch, 384 Кбит/с)
Перевод: Профессиональный (многоголосый закадровый) (LostFilm)
Аудио #2: Английский (EAС3, 6 ch, 640 Кбит/с)
Субтитры: Английские
Продолжительность: 11 х ~00:42:00
Реклама: Полностью отсутствует

MediaInfo:

Общее
Уникальный идентификатор : 191509811528425659030916519620956729428 (0x901372B47F0E048FBDDDF83081653054)
Полное имя : D:\Hawaii Five-0 (Season 08) AMZN WEBDL 720p GeneralFilm\Hawaii.Five-0.S08E01.AMZN.WEBDL.720p.GeneralFilm.mkv
Формат : Matroska
Версия формата : Version 4 / Version 2
Размер файла : 1,45 Гбайт
Продолжительность : 41 м. 35 с.
Режим общего битрейта : Переменный
Общий поток : 4992 Кбит/сек
Дата кодирования : UTC 2017-10-02 01:04:02
Программа кодирования : mkvmerge v7.7.0 ('Six Voices') 64bit built on Feb 28 2015 23:39:33
Библиотека кодирования : libebml v1.3.1 + libmatroska v1.4.2
Видео
Идентификатор : 1
Формат : AVC
Формат/Информация : Advanced Video Codec
Профиль формата : High@L3.1
Настройки формата : CABAC / 5 Ref Frames
Параметр CABAC формата : Да
Параметр RefFrames формата : 5 кадров
Идентификатор кодека : V_MPEG4/ISO/AVC
Продолжительность : 41 м. 35 с.
Вид битрейта : Переменный
Битрейт : 3869 Кбит/сек
Максимальный битрейт : 4500 Кбит/сек
Ширина : 1280 пикселей
Высота : 720 пикселей
Соотношение сторон : 16:9
Режим частоты кадров : Постоянный
Частота кадров : 23,976 (24000/1001) кадра/сек
Цветовое пространство : YUV
Субдискретизация насыщенности : 4:2:0
Битовая глубина : 8 бит
Тип развёртки : Прогрессивная
Бит/(Пиксели*Кадры) : 0.175
Размер потока : 1,12 Гбайт (77%)
Язык : English
Default : Да
Forced : Нет
Цветовой диапазон : Limited
Основные цвета : BT.709
Характеристики трансфера : BT.709
Коэффициенты матрицы : BT.709
Аудио #1
Идентификатор : 2
Формат : AC-3
Формат/Информация : Audio Coding 3
Параметр Endianness формата : Big
Идентификатор кодека : A_AC3
Продолжительность : 41 м. 35 с.
Вид битрейта : Постоянный
Битрейт : 384 Кбит/сек
Каналы : 2 канала
Расположение каналов : Front: L R
Частота : 48,0 КГц
Частота кадров : 31,250 кадров/сек (1536 SPF)
Битовая глубина : 16 бит
Метод сжатия : С потерями
Размер потока : 114 Мбайт (8%)
Язык : Russian
ServiceKind/String : Complete Main
Default : Да
Forced : Нет
Аудио #2
Идентификатор : 3
Формат : E-AC-3
Формат/Информация : Enhanced Audio Coding 3
Параметр Endianness формата : Big
Идентификатор кодека : A_EAC3
Продолжительность : 41 м. 35 с.
Вид битрейта : Постоянный
Битрейт : 640 Кбит/сек
Каналы : 6 каналов
Расположение каналов : Front: L C R, Side: L R, LFE
Частота : 48,0 КГц
Частота кадров : 187,500 кадров/сек (256 SPF)
Метод сжатия : С потерями
Размер потока : 190 Мбайт (13%)
Язык : English
ServiceKind/String : Complete Main
Default : Нет
Forced : Нет
Текст
Идентификатор : 4
Формат : UTF-8
Идентификатор кодека : S_TEXT/UTF8
Идентификатор кодека/Информация : UTF-8 Plain Text
Заголовок : English [CC]
Язык : English
Default : Нет
Forced : Нет

Скриншоты

[Цитировать]



Показать сообщения:    

Текущее время: 25-Авг 10:11

Часовой пояс: UTC + 6


Вы не можете начинать темы
Вы не можете отвечать на сообщения
Вы не можете редактировать свои сообщения
Вы не можете удалять свои сообщения
Вы не можете голосовать в опросах
Вы не можете прикреплять файлы к сообщениям
Вы не можете скачивать файлы

!ВНИМАНИЕ!
Сайт не предоставляет электронные версии произведений, а занимается лишь коллекционированием и каталогизацией ссылок, присылаемых и публикуемых на форуме нашими читателями. Если вы являетесь правообладателем какого-либо представленного материала и не желаете, чтобы ссылка на него находилась в нашем каталоге, свяжитесь с нами, и мы незамедлительно удалим ее. Файлы для обмена на трекере предоставлены пользователями сайта, и администрация не несет ответственности за их содержание. Просьба не заливать файлы, защищенные авторскими правами, а также файлы нелегального содержания!