[ Сегодня идет свободное скачивание без начисления Download ]


Статистика раздачи
Нет
 
   
 
 
 
 
Московская борзая (2018) WEB-DLRip - Производство: Россия / Кинокомпания "Русское"
Жанр: криминал, мелодрама
Режиссер: Роман Просвирнин
Актеры: Екатерина Климова, Олег Алмазов, Александр Ратников, Сергей Мухин, Николай Лунин, Татьяна Кузнецова, Сергей Шеховцов, Михаил Владимиров, Анастасия Савосина, Евгений Пронин и др.
Описание:
Новый сезон по-настоящему удивит телезрителей, ведь на этот раз события развернутся… в подсознании главной героини! Распутывая очередное преступление, Борзова сама становится жертвой. По сценарию, среди груды тел следователи находят полуживую Алевтину. Чтобы распутать головоломку и разобраться в трагедии, сыщики решаются на небывалый эксперимент. Интрига будет строиться вокруг нового персонажа в исполнении актрисы Екатерины Климовой. Именно её героине предстоит внедриться в голову майора Борзовой.

Возраст: 16+ (зрителям, достигшим 16 лет)
Дата российской премьеры: 1 октября 2018
Релиз от: Алехаndr
Продолжительность: ~00:50:00 серия
Качество видео: WEB-DLRip
Видео: Xvid, 720x400 (16:9), ~1450 Kbps
Аудио: AC3, 2 ch, 192 Kbps

Mediainfo:

Общее
Полное имя : D:\Московская борзая (2018).by.Алехаndr\Серия 01.by.Алехаndr.avi
Формат : AVI
Формат/Информация : Audio Video Interleave
Размер файла : 602 Мбайт
Продолжительность : 51 м. 1 с.
Общий поток : 1649 Кбит/сек
Программа кодирования : Lavf58.12.100
Видео
Идентификатор : 0
Формат : xvid
Идентификатор кодека : xvid
Продолжительность : 51 м. 1 с.
Битрейт : 1446 Кбит/сек
Ширина : 720 пикселей
Высота : 400 пикселей
Соотношение сторон : 16:9
Частота кадров : 25,000 кадров/сек
Тип развёртки : Прогрессивная
Бит/(Пиксели*Кадры) : 0.201
Размер потока : 528 Мбайт (88%)
Аудио
Идентификатор : 1
Формат : AC-3
Формат/Информация : Audio Coding 3
Коммерческое название : Dolby Digital
Идентификатор кодека : 2000
Продолжительность : 51 м. 1 с.
Вид битрейта : Постоянный
Битрейт : 192 Кбит/сек
Каналы : 2 канала
Channel layout : L R
Частота : 48,0 КГц
Частота кадров : 31,250 кадров/сек (1536 SPF)
Битовая глубина : 16 бит
Метод сжатия : С потерями
Размер потока : 70,1 Мбайт (12%)
Выравнивание : Соединение по промежуткам
Продолжительность промежутка : 32 мс. (0,80 видеокадр)
ServiceKind/String : Complete Main

Внимание! Раздача ведётся путём добавления новых серий

Внимание! Раздача ведётся путём добавления новых серий; при каждом добавлении создаётся новый торрент.
Чтобы начать докачку новой серии, пользователям необходимо сделать следующее:
1. Остановить скачивание;
2. Удалить старый торрент у себя из клиента (старые серии удалять не надо);
3. Скачать новый торрент и запустить его у себя в клиенте вместо старого, при этом указать клиенту путь в старую папку куда и должно происходить скачивание новых серий. Ваш клиент при этом должен произвести хеширование (проверку) старой папки и будет докачивать только те серии, которых у вас ещё нет. Старые серии при этом не удаляются, а продолжают раздаваться! Eсли вы уже удалили старые серии, то предотвратить повторную закачку старых серий можно, отжав галочку в соответствующих местах при запуске нового торрента.
Скриншоты:

[Цитировать]



Показать сообщения:    

Текущее время: 02-Окт 14:26

Часовой пояс: UTC + 6


Вы не можете начинать темы
Вы не можете отвечать на сообщения
Вы не можете редактировать свои сообщения
Вы не можете удалять свои сообщения
Вы не можете голосовать в опросах
Вы не можете прикреплять файлы к сообщениям
Вы не можете скачивать файлы

!ВНИМАНИЕ!
Сайт не предоставляет электронные версии произведений, а занимается лишь коллекционированием и каталогизацией ссылок, присылаемых и публикуемых на форуме нашими читателями. Если вы являетесь правообладателем какого-либо представленного материала и не желаете, чтобы ссылка на него находилась в нашем каталоге, свяжитесь с нами, и мы незамедлительно удалим ее. Файлы для обмена на трекере предоставлены пользователями сайта, и администрация не несет ответственности за их содержание. Просьба не заливать файлы, защищенные авторскими правами, а также файлы нелегального содержания!