[ Сегодня идет свободное скачивание без начисления Download ]


Статистика раздачи
Нет
 
   
 
 
 
 
Джессика Джонс / Jessica Jones [02х01 из 13] | P Информация о фильме
Название: Джессика Джонс 2 Сезон
Оригинальное название: Jessica Jones
Год выпуска: 2018
Страна: США
Жанр: Фантастика, боевик, триллер, драма, криминал-Перевод: Профессиональный многоголосый [LostFilm]
Продолжительность: 00:54:04-Режиссер: Ута Бризвитц , Розмари Родригез , Саймон Селлан Джоунс
В ролях: Кристен Риттер (Jessica Jones), Рэйчел Тейлор (Trish Walker), Ика Дэрвилл (Malcolm Ducasse), Кэрри-Энн Мосс (Jeri Hogarth), Дж.Р. Рамирез (Oscar Arocho), Дэвид Теннант (Kilgrave), Уил Трэвэл (Will Simpson), Джанет МакТир (Alisa Jones), Сьюзи Абромейт (Pam), Майк Колтер (Luke Cage), Эрин Мориарти (Hope Shlottman), Леа Гибсон (Inez Green)-Описание:
После трагических событий, оборвавших короткую супергеройскую карьеру Джессики Джонс, девушка пытается восстановить свою личную жизнь и свою карьеру частного детектива, расследуя таинственную активность людей со сверхспособностями в Нью-Йорке.
Мировая премьера: 8 Марта 2018
-Качество: WEBRip-AVC | Присутствует заставка и логотип LostFilm.
Формат: MKV
Видео: AVC, 1024x576 (16:9), 1309 kbps, 23,976 fps, 0,093 bpp
Аудио: AC3 / 2.0 / 48 kHz / 384 kbps /--

ОтчетМедиаИнфо

General
Unique ID : 219780115539950670113424589979548326341 (0xA5581C4E4F8F978F8EADB2F2720F19C5)
Complete name : E:запись с твJessica Jones S02 2018 WEBRip-AVC .R.G.GeneralfilmMarvels.Jessica.Jones.s01e01.s01e01.WEBRip-AVC.by.White Smoke.R.G.Generalfilm.LostFilm.mkv
Format : Matroska
Format version : Version 4 / Version 2
File size : 655 MiB
Duration : 54 min
Overall bit rate : 1 694 kb/s
Movie name : Marvels.Jessica.Jones.s01e01.s01e01.WEBRip-AVC.by.White Smoke.R.G.Generalfilm.LostFilm.mkv
Encoded date : UTC 2018-03-10 22:27:09
Writing application : mkvmerge v6.8.0 ('Theme for Great Cities') 64bit built on Mar 2 2014 21:34:26
Writing library : libebml v1.3.0 + libmatroska v1.4.1
Video
ID : 1
Format : AVC
Format/Info : Advanced Video Codec
Format profile : High@L4.1
Format settings, CABAC : Yes
Format settings, ReFrames : 10 frames
Codec ID : V_MPEG4/ISO/AVC
Duration : 54 min
Bit rate : 1 309 kb/s
Width : 1 024 pixels
Height : 576 pixels
Display aspect ratio : 16:9
Frame rate mode : Constant
Frame rate : 23.976 (24000/1001) FPS
Color space : YUV
Chroma subsampling : 4:2:0
Bit depth : 8 bits
Scan type : Progressive
Bits/(Pixel*Frame) : 0.093
Stream size : 494 MiB (75%)
Writing library : x264 core 148 r2638 7599210
Encoding settings : cabac=1 / ref=10 / deblock=1:-2:-1 / analyse=0x3:0x113 / me=umh / subme=11 / psy=1 / psy_rd=0.00:0.15 / mixed_ref=1 / me_range=32 / chroma_me=1 / trellis=2 / 8x8dct=1 / cqm=0 / deadzone=21,11 / fast_pskip=0 / chroma_qp_offset=-3 / threads=6 / lookahead_threads=1 / sliced_threads=0 / nr=0 / decimate=0 / interlaced=0 / bluray_compat=0 / constrained_intra=0 / bframes=10 / b_pyramid=2 / b_adapt=2 / b_bias=0 / direct=1 / weightb=1 / open_gop=0 / weightp=2 / keyint=240 / keyint_min=23 / scenecut=40 / intra_refresh=0 / rc_lookahead=40 / rc=2pass / mbtree=1 / bitrate=1309 / ratetol=1.0 / qcomp=0.65 / qpmin=0 / qpmax=69 / qpstep=4 / cplxblur=20.0 / qblur=0.5 / vbv_maxrate=50000 / vbv_bufsize=65500 / nal_hrd=none / filler=0 / ip_ratio=1.40 / aq=1:1.00
Language : English
Default : Yes
Forced : No
Audio
ID : 2
Format : AC-3
Format/Info : Audio Coding 3
Mode extension : CM (complete main)
Format settings, Endianness : Big
Codec ID : A_AC3
Duration : 54 min
Bit rate mode : Constant
Bit rate : 384 kb/s
Channel(s) : 2 channels
Channel positions : Front: L R
Sampling rate : 48.0 kHz
Frame rate : 31.250 FPS (1536 spf)
Compression mode : Lossy
Stream size : 149 MiB (23%)
Default : Yes
Forced : No

Скриншоты

Раздача ведётся путём добавления новых серий

Внимание! Раздача ведётся путём добавления новых серий; при каждом добавлении создаётся новый торрент.
Чтобы начать докачку новой серии, пользователям необходимо сделать следующее:
1. Остановить скачивание;
2. Удалить старый торрент у себя из клиента (старые серии удалять не надо);
3. Скачать новый торрент и запустить его у себя в клиенте вместо старого, при этом указать клиенту путь в старую папку куда и должно происходить скачивание новых серий. Ваш клиент при этом должен произвести хеширование (проверку) старой папки и будет докачивать только те серии, которых у вас ещё нет. Старые серии при этом не удаляются, а продолжают раздаваться! Eсли вы уже удалили старые серии, то предотвратить повторную закачку старых серий можно, отжав галочку в соответствующих местах при запуске нового торрента.

Релиз от:

[Цитировать]



Показать сообщения:    

Текущее время: 25-Авг 10:05

Часовой пояс: UTC + 6


Вы не можете начинать темы
Вы не можете отвечать на сообщения
Вы не можете редактировать свои сообщения
Вы не можете удалять свои сообщения
Вы не можете голосовать в опросах
Вы не можете прикреплять файлы к сообщениям
Вы не можете скачивать файлы

!ВНИМАНИЕ!
Сайт не предоставляет электронные версии произведений, а занимается лишь коллекционированием и каталогизацией ссылок, присылаемых и публикуемых на форуме нашими читателями. Если вы являетесь правообладателем какого-либо представленного материала и не желаете, чтобы ссылка на него находилась в нашем каталоге, свяжитесь с нами, и мы незамедлительно удалим ее. Файлы для обмена на трекере предоставлены пользователями сайта, и администрация не несет ответственности за их содержание. Просьба не заливать файлы, защищенные авторскими правами, а также файлы нелегального содержания!