[ Сегодня идет свободное скачивание без начисления Download ]


Статистика раздачи
Нет
 
   
 
 
 
 
Голос [06х01-18 из 18] (2017) | HDTV 1080i Оригинальное название: Голос. Шестой сезон
Год выпуска: 2017
Жанр: Музыка, концерт
Выпущено: Россия, Первый канал, Красный квадрат, Talpa Productions
Наставники: Александр Градский, Леонид Агутин, Пелагея и Дима Билан
Ведущий: Дмитрий Нагиев
О фильме: "Первый канал" объявляет о премьере нового сезона музыкального проекта "Голос". Из тысяч претендентов, приславших минувшим летом свои заявки на участие, отобраны полторы сотни тех, кто поднимется на ставшую уже знаменитой на всю страну сцену во время "слепых прослушиваний" в надежде покорить слух требовательных наставников. Зрителей ждут новые голоса, новые мелодии и новые песни. Музыкальные наставники наберут свои команды, а затем сами же "разберут" их, открывая дорогу вперед лишь лучшим из лучших. В конце концов дальнейшую судьбу участников будут решать уже зрители на прямых эфирах, а в финале сезона страна узнает имя победителя нового "Голоса"!
Качество: HDTV (1080i)
Видео: MPEG-TS AVC, ~ 7500 Кбит/с, 1920x1080
Аудио: Русский (AC3, 2 ch, 384 Кбит/с), (MP2, 2 ch, 192 Кбит/с)
Продолжительность: 18 х ~ 01:40:00

MediaInfo:

Общее
Идентификатор : 1 (0x1)
Полное имя : D:\Запись\Golos 6.HDTV(1080i).GeneralFilm\Golos 6.(01.Vypusk).HDTV(1080i).GeneralFilm.ts
Формат : MPEG-TS
Размер файла : 5,99 Гбайт
Продолжительность : 1 ч. 40 м.
Режим общего битрейта : Переменный
Общий поток : 8505 Кбит/сек
Видео
Идентификатор : 1904 (0x770)
Идентификатор меню : 80 (0x50)
Формат : AVC
Формат/Информация : Advanced Video Codec
Профиль формата : High@L4
Параметр CABAC формата : Да
Параметр ReFrames формата : 3 кадра
Идентификатор кодека : 27
Продолжительность : 1 ч. 40 м.
Битрейт : 7503 Кбит/сек
Ширина : 1920 пикселей
Высота : 1080 пикселей
Соотношение сторон : 16:9
Частота кадров : 25,000 кадров/сек
Стандарт вещания : Component
Цветовое пространство : YUV
Субдискретизация насыщенности : 4:2:0
Битовая глубина : 8 бит
Тип развёртки : Чересстрочная
Метод сохранения типа развёртки : Раздельные поля
Порядок развёртки : Верхнее поле первое
Бит/(Пиксели*Кадры) : 0.145
Размер потока : 5,29 Гбайт (88%)
Цветовой диапазон : Limited
Основные цвета : BT.709
Характеристики трансфера : BT.709
Коэффициенты матрицы : BT.709
Аудио #1
Идентификатор : 2904 (0xB58)
Идентификатор меню : 80 (0x50)
Формат : AC-3
Формат/Информация : Audio Coding 3
Расширение режима : CM (complete main)
Параметр Endianness формата : Big
Идентификатор кодека : 6
Продолжительность : 1 ч. 40 м.
Вид битрейта : Постоянный
Битрейт : 384 Кбит/сек
Каналы : 6 каналов
Расположение каналов : Front: L C R, Side: L R, LFE
Частота : 48,0 КГц
Частота кадров : 31,250 кадров/сек (1536 spf)
Битовая глубина : 16 бит
Метод сжатия : С потерями
Задержка видео : -120 мс.
Размер потока : 277 Мбайт (5%)
Язык : Russian
Аудио #2
Идентификатор : 2905 (0xB59)
Идентификатор меню : 80 (0x50)
Формат : MPEG Audio
Версия формата : Version 1
Профиль формата : Layer 2
Идентификатор кодека : 3
Продолжительность : 1 ч. 40 м.
Вид битрейта : Постоянный
Битрейт : 192 Кбит/сек
Каналы : 2 канала
Частота : 48,0 КГц
Метод сжатия : С потерями
Задержка видео : -120 мс.
Размер потока : 139 Мбайт (2%)
Язык : Russian

Скриншоты


[Цитировать]



Показать сообщения:    

Текущее время: 25-Авг 10:15

Часовой пояс: UTC + 6


Вы не можете начинать темы
Вы не можете отвечать на сообщения
Вы не можете редактировать свои сообщения
Вы не можете удалять свои сообщения
Вы не можете голосовать в опросах
Вы не можете прикреплять файлы к сообщениям
Вы не можете скачивать файлы

!ВНИМАНИЕ!
Сайт не предоставляет электронные версии произведений, а занимается лишь коллекционированием и каталогизацией ссылок, присылаемых и публикуемых на форуме нашими читателями. Если вы являетесь правообладателем какого-либо представленного материала и не желаете, чтобы ссылка на него находилась в нашем каталоге, свяжитесь с нами, и мы незамедлительно удалим ее. Файлы для обмена на трекере предоставлены пользователями сайта, и администрация не несет ответственности за их содержание. Просьба не заливать файлы, защищенные авторскими правами, а также файлы нелегального содержания!