[ Сегодня идет свободное скачивание без начисления Download ]


Статистика раздачи
Нет
 
   
 
 
 
 
Сверхлюди / Нелюди / Inhumans [01x01-08 из 08] (2017) | WEB-DL 720р Название: Сверхлюди / Нелюди
Оригинальное название: Inhumans
Год выпуска: 2017
Жанр: Фантастика, боевик, приключения
Выпущено: США, Marvel Television, Walt Disney Television
Режиссер: Роэль Рейн, Крис Фишер, Билл Джирхарт
В ролях: Соня Балморес, Изабель Корниш, Эме Иквуакор, Кен Люн, Майк Мо, Энсон Маунт, Иван Реон, Серинда Свон, Эллен Воглом, Генри Иэн Кьюсик
Описание:
История Королевской семьи, принадлежащей к расе Сверхлюдей. Вследствие военного переворота члены королевской фамилии под предводительством Чёрного Грома вынуждены покинуть свой дом в лунном городе Аттилан и бежать на острова, как в дальнейшем оказывается — Гавайи, где им предстоит спасать не только себя, но и весь мир от гибели.

Качество: WEB-DL 720р (чистый видеоряд)
Видео: 1280x720, 23.976 fps, MPEG-4 AVC ~4000 kbps
Аудио #1: Русский (AC3, 2 ch, 384 Кбит/с)
Перевод: Профессиональный (многоголосый закадровый) (LostFilm)
Аудио #2: Английский (AС3, 6 ch, 384 Кбит/с)
Субтитры: Английские
Продолжительность: 8 х ~00:45:00
Реклама: Полностью отсутствует

MediaInfo:

Общее
Уникальный идентификатор : 194341900966333485616675562445761607650 (0x9234E37EB2E392DAB9E39D897DF6F7E2)
Полное имя : D:\Marvels. Inhumans (Season 01) WEBDL 720p GeneralFilm\Marvels.Inhumans.S01E01.WEBDL.720p.GeneralFilm.mkv
Формат : Matroska
Версия формата : Version 4 / Version 2
Размер файла : 1,43 Гбайт
Продолжительность : 42 м. 29 с.
Общий поток : 4802 Кбит/сек
Дата кодирования : UTC 2017-10-02 04:41:26
Программа кодирования : mkvmerge v7.7.0 ('Six Voices') 64bit built on Feb 28 2015 23:39:33
Библиотека кодирования : libebml v1.3.1 + libmatroska v1.4.2
Видео
Идентификатор : 1
Формат : AVC
Формат/Информация : Advanced Video Codec
Профиль формата : High@L3.1
Настройки формата : 2 Ref Frames
Параметр CABAC формата : Нет
Параметр RefFrames формата : 2 кадра
Идентификатор кодека : V_MPEG4/ISO/AVC
Продолжительность : 42 м. 29 с.
Битрейт : 3938 Кбит/сек
Ширина : 1280 пикселей
Высота : 720 пикселей
Соотношение сторон : 16:9
Режим частоты кадров : Постоянный
Частота кадров : 23,976 (24000/1001) кадра/сек
Цветовое пространство : YUV
Субдискретизация насыщенности : 4:2:0
Битовая глубина : 8 бит
Тип развёртки : Прогрессивная
Бит/(Пиксели*Кадры) : 0.178
Размер потока : 1,17 Гбайт (82%)
Язык : English
Default : Да
Forced : Нет
Цветовой диапазон : Limited
Основные цвета : BT.709
Характеристики трансфера : BT.709
Коэффициенты матрицы : BT.709
Аудио #1
Идентификатор : 2
Формат : AC-3
Формат/Информация : Audio Coding 3
Параметр Endianness формата : Big
Идентификатор кодека : A_AC3
Продолжительность : 42 м. 29 с.
Вид битрейта : Постоянный
Битрейт : 384 Кбит/сек
Каналы : 2 канала
Расположение каналов : Front: L R
Частота : 48,0 КГц
Частота кадров : 31,250 кадров/сек (1536 SPF)
Битовая глубина : 16 бит
Метод сжатия : С потерями
Задержка видео : -42 мс.
Размер потока : 117 Мбайт (8%)
Язык : Russian
ServiceKind/String : Complete Main
Default : Да
Forced : Нет
Аудио #2
Идентификатор : 3
Формат : AC-3
Формат/Информация : Audio Coding 3
Параметр Endianness формата : Big
Идентификатор кодека : A_AC3
Продолжительность : 42 м. 29 с.
Вид битрейта : Постоянный
Битрейт : 384 Кбит/сек
Каналы : 6 каналов
Расположение каналов : Front: L C R, Side: L R, LFE
Частота : 48,0 КГц
Частота кадров : 31,250 кадров/сек (1536 SPF)
Битовая глубина : 16 бит
Метод сжатия : С потерями
Задержка видео : -42 мс.
Размер потока : 117 Мбайт (8%)
Язык : English
ServiceKind/String : Complete Main
Default : Нет
Forced : Нет
Текст #1
Идентификатор : 4
Формат : UTF-8
Идентификатор кодека : S_TEXT/UTF8
Идентификатор кодека/Информация : UTF-8 Plain Text
Язык : English
Default : Нет
Forced : Нет
Текст #2
Идентификатор : 5
Формат : UTF-8
Идентификатор кодека : S_TEXT/UTF8
Идентификатор кодека/Информация : UTF-8 Plain Text
Заголовок : SDH
Язык : English
Default : Нет
Forced : Нет

Скриншоты

Внимание! Раздача ведётся путём добавления новых серий!

Внимание! Раздача ведётся путём добавления новых серий; при каждом добавлении создfётся новый торрент. Чтобы начать докачку новой серии, пользователям необходимо сделать следующее: (1) остановить скачивание, (2) удалить старый торрент у себя из клиента (старые серии удалять не надо), (3) скачать новый торрент и запустить его у себя в клиенте вместо старого, при этом указать клиенту путь в старую папку куда и должно происходить скачивание новых серий.
Ваш клиент при этом должен произвести хеширование (проверку) старой папки (если не производит сам - помогите ему сделать это), и будет докачивать только те серии которых у вас ещё нет. Старые серии при этом не удаляются, а продолжают раздаваться!
Eсли вы уже удалили старые серии, то предотвратить повторную закачку старых серий можно, отжав галочку в соответсвующих местах при запуске нового торрента.

[Цитировать]



Показать сообщения:    

Текущее время: 25-Авг 10:11

Часовой пояс: UTC + 6


Вы не можете начинать темы
Вы не можете отвечать на сообщения
Вы не можете редактировать свои сообщения
Вы не можете удалять свои сообщения
Вы не можете голосовать в опросах
Вы не можете прикреплять файлы к сообщениям
Вы не можете скачивать файлы

!ВНИМАНИЕ!
Сайт не предоставляет электронные версии произведений, а занимается лишь коллекционированием и каталогизацией ссылок, присылаемых и публикуемых на форуме нашими читателями. Если вы являетесь правообладателем какого-либо представленного материала и не желаете, чтобы ссылка на него находилась в нашем каталоге, свяжитесь с нами, и мы незамедлительно удалим ее. Файлы для обмена на трекере предоставлены пользователями сайта, и администрация не несет ответственности за их содержание. Просьба не заливать файлы, защищенные авторскими правами, а также файлы нелегального содержания!